#TITLE:feel fine;
#SUBTITLE:;
#ARTIST:倉木麻衣;
#TITLETRANSLIT:;
#SUBTITLETRANSLIT:;
#ARTISTTRANSLIT:;
#CREDIT:;
#BANNER:feel fine-logo.jpg;
#BACKGROUND:feel fine.jpg;
#LYRICSPATH:;
#CDTITLE:DD.png;
#MUSIC:feel fine.mp3;
#OFFSET:-0.040;
#SAMPLESTART:100.000;
#SAMPLELENGTH:12.000;
#SELECTABLE:YES;
#BPMS:0.000=152.000;
#STOPS:;
#BGCHANGES:;
// cache tags:
#FIRSTBEAT:4.000;
#LASTBEAT:360.000;
#SONGFILENAME:Songs/SDO/feel fine/feel fine.sm;
#HASMUSIC:1;
#HASBANNER:1;
#MUSICLENGTH:142.017;
// end cache tags

//---------------dance-single - Hener----------------
#NOTES:
     dance-single:
     Hener:
     Hard:
     9:
     0.877,0.856,1.000,0.169,0.137,578.000,259.000,24.000,0.000,29.000:

0000
0000
0000
0000
,
1011
1101
0000
0000
,
0011
0000
1100
0000
0101
0011
1100
0000
,
0101
0000
0110
0000
1001
1001
0110
0000
,
1011
0000
1100
0000
0011
0101
1010
0000
,
2001
0000
0100
3000
0011
0011
1100
0000
,
0011
0000
1110
0000
0101
1001
0110
0000
,
0011
0000
0110
0000
1001
0101
0010
0000
,
0011
0000
0110
0000
0011
0011
0110
0000
,
2101
0000
0010
0000
0101
0000
0010
0000
0101
0000
0010
0000
0101
0000
0010
3000
,
0201
0000
0010
0000
0001
0000
0010
0000
1000
0000
0010
0000
0001
0000
0010
0300
,
2011
0000
0100
0000
0011
0000
0100
0000
0011
0000
0100
0000
0011
0000
0100
3000
,
1200
0000
0010
0000
1000
0000
0010
0000
0001
0000
0010
0000
1000
0000
0010
0300
,
2101
0000
0010
0000
0101
0000
0010
0000
0101
0000
0010
0000
0101
0000
0010
3000
,
0201
0000
0010
0000
0001
0000
0010
0000
0001
0000
0010
0000
0001
0000
0010
0300
,
2011
0000
0010
0000
0101
0000
0100
0000
0011
0000
0010
0000
0101
0000
0100
3000
,
0211
0000
1000
0000
0011
0000
1000
0000
1000
0000
0010
0001
0001
0001
0300
0000
,
1001
0000
0010
0000
1001
1001
1100
0010
,
0101
0000
0100
0000
1001
1001
1010
0100
,
0011
0000
0010
0000
0101
0101
1100
0010
,
0011
0000
1000
0000
0101
0101
0110
1000
,
1001
0000
1000
0000
0011
0011
0110
1000
,
0101
0000
1000
0000
0011
0011
1010
0100
,
1001
0000
0010
0000
1001
1001
1010
0100
,
0011
0000
0100
0000
1001
1001
1100
0010
,
0021
0000
0201
0030
2001
0301
0010
3000
,
0011
0000
0010
0000
1001
1001
1010
0100
,
1001
0100
0000
0000
1001
0100
0000
0000
1001
0100
0000
0000
1001
0100
0000
0000
,
0011
0100
0000
0000
0011
0100
0000
0000
0011
0100
0000
0000
0011
0100
0000
0000
,
2001
0000
0001
0000
3001
0001
0010
0100
,
0201
0000
0001
0000
0301
0001
0010
0100
,
0021
0000
0001
0000
0031
0001
0010
0100
,
1001
0000
1001
0000
1001
1001
0110
0010
,
2001
0000
0001
0000
3001
0001
0100
0010
,
0201
0000
0001
0000
0301
0001
0100
0010
,
0021
0000
0001
0000
0031
0001
0100
0010
,
1001
0000
1001
0000
1001
1001
0110
0010
,
0001
0100
0001
0000
0001
0001
0010
1000
,
0001
0000
0001
0000
0001
0001
1000
0010
,
0102
0000
0100
0000
0103
0010
1000
0010
,
0101
0000
0000
0000
1001
0000
0000
0000
0101
0000
1001
0000
0010
0100
1000
0000
,
0001
0010
0001
0100
0001
1000
0001
0010
,
0001
0100
0001
1000
0001
0010
0001
0100
,
1000
0001
1000
0010
1000
0100
1000
0001
,
1000
0010
1000
0100
1000
0001
1000
0010
,
2001
0000
0001
0000
0001
0000
0001
3000
,
0201
0000
0001
0000
0001
0000
0001
0300
,
0021
0000
0001
0000
0001
0000
0001
0030
,
0001
0000
0010
0000
0010
0000
0100
0000
0001
0000
0001
0000
0010
0100
1000
0000
,
0011
0000
1000
0000
0011
0100
0000
0000
0001
0000
0101
0000
1001
0000
0010
0000
,
0011
0000
0010
0000
0101
1000
0000
0000
0001
0000
0101
0000
0011
0000
0100
0000
,
0101
0000
1000
0000
0011
1000
0000
0000
0001
0000
0011
0000
0101
0000
0010
0000
,
1001
0000
0010
0000
0101
0010
0000
0000
0001
0000
0101
0000
0011
0000
1000
0000
,
0101
0000
0100
0000
0011
1000
0000
0000
0001
0000
0101
0000
1001
0000
0010
0000
,
1001
0000
0100
0000
0011
0100
0000
0000
0001
0000
1001
0000
0011
0000
0100
0000
,
0011
0000
0010
0000
1001
0100
0000
0000
0001
0000
0101
0000
0001
0000
0010
0000
,
1001
0000
0000
0000
0100
0000
0010
0000
0001
0010
0001
0010
0001
0010
0100
0000
,
0011
0000
0100
0000
0011
1000
0000
0000
0001
0000
0011
0000
1001
0000
0010
0000
,
0101
0000
0010
0000
0101
1000
0000
0000
0001
0000
0011
0000
0101
0000
0010
0000
,
1001
0000
0100
0000
1001
0010
0000
0000
0001
0000
0101
0000
0011
0000
1000
0000
,
0101
0000
0010
0000
1001
0010
0000
0000
0001
0000
1001
0000
0011
0000
0100
0000
,
0011
0000
1000
0000
0011
1000
0000
0000
0001
0000
0011
0000
0101
0000
1000
0000
,
0101
0000
0100
0000
1001
0100
0000
0000
0001
0000
0011
0000
0101
0000
0010
0000
,
1001
0000
0010
0000
0101
0010
0000
0000
0001
0000
1001
0000
0011
0000
0100
0000
,
0000
0001
0010
0001
0010
0001
0010
0000
1001
0000
0000
0000
0000
0000
0000
0000
0000
0000
0000
0000
0000
0000
0000
0000
0101
0000
0000
0000
0000
0000
0000
0000
,
1010
0000
0011
0000
0101
0011
1001
0000
,
0011
0000
0101
0000
1001
0101
0011
0000
,
0011
0000
1001
0000
0011
1001
0101
0000
,
0101
0000
0011
0000
1001
0101
0011
0000
,
0011
0000
0101
0000
0101
0011
1001
0000
,
0011
0000
1001
0000
0101
0011
1001
0000
,
0101
0000
0011
0000
0101
1001
0011
0000
,
0011
0000
0100
0000
0011
0000
0011
0000
1000
0001
1000
0001
1000
0001
0100
0000
,
0011
0000
0101
0000
0101
0011
1001
0000
,
0101
0000
0011
0000
1001
0101
0011
0000
,
0011
0000
0101
0000
0011
1001
0101
0000
,
1001
0000
0011
0000
0101
0011
1001
0000
,
0011
0000
0101
0000
0011
0101
0011
0000
,
1001
0000
0011
0000
0101
0101
1001
0000
,
0011
0000
0101
0000
0011
0101
1001
0000
,
1221
0000
0000
0000
1000
0000
0001
0000
1000
0000
0000
0330
0001
1000
0001
1000
,
0001
0000
0001
0000
0000
0000
0001
1000
,
1000
0000
0100
0100
0100
0000
0001
0001
,
0001
0000
1000
0000
0010
1000
0100
0100
,
0100
0100
0010
1000
1000
0000
0001
0001
,
0001
0000
0010
0000
0010
0010
0010
0010
,
1000
0000
0100
0100
0100
0100
0000
0001
,
0001
0001
0010
1000
0100
0100
0100
0100
,
1000
0000
0010
0010
0010
0000
0001
0001
,
0001
0000
0100
0000
0001
0001
0001
0000
,
1000
0000
0000
0000
;
